Pershendetje antar te nderuar,Qe te keni perparsi ne qdo forum Duhet qe te jeni te regjistruar.

Neqoft se jeni te regjistruar Ju lutem kyquni forum.
Me Respekt Stafi: Albveraa

Rio [2011] 720p BRrip [Alb] Dubluar ne shqip

Faqja 1 e 3 1, 2, 3  Next

Shiko temën e mëparshme Shiko temën pasuese Shko poshtë

New Mesazh Rio [2011] 720p BRrip [Alb] Dubluar ne shqip

Mesazh nga LeRo_StReeTBoy prej Mon Oct 24, 2011 12:52 pm














General
Complete name                    : Rio [2011] 720p BRrip [Alb] -LeRoSkyBoy™️.mkv
Format                           : Matroska
Format version                   : Version 2
File size                        : 3.50 GiB
Duration                         : 1h 32mn
Overall bit rate                 : 5 444 Kbps

Video
ID                               : 1
Format                           : AVC
Format/Info                      : Advanced Video Codec
Format profile                   : High@L4.1
Format settings, CABAC           : Yes
Format settings, ReFrames        : 9 frames
Format settings, GOP             : M=4, N=54
Codec ID                         : V_MPEG4/ISO/AVC
Duration                         : 1h 32mn
Bit rate                         : 5 016 Kbps
Width                            : 1 280 pixels
Height                           : 528 pixels
Display aspect ratio             : 2.40:1
Frame rate                       : 25.000 fps
Original frame rate              : 23.976 fps
Color space                      : YUV
Chroma subsampling               : 4:2:0
Bit depth                        : 8 bits
Scan type                        : Progressive
Bits/(Pixel*Frame)               : 0.297
Stream size                      : 3.29 GiB (94%)
Writing library                  : x264 core 114 r1924 08d04a4
Language                         : English

Audio
Codec ID/Hint                    : MP3
Duration                         : 1h 32mn
Bit rate mode                    : Constant
Bit rate                         : 224 Kbps
Channel(s)                       : 2 channels
Sampling rate                    : 48.0 KHz
Compression mode                 : Lossy
Delay relative to video          : -80ms
Stream size                      : 147 MiB (4%)
Language                         : English



Linku hide shëno p.sh. "FLM" për ta shkarkuar! Kosova








Edituar për herë të fundit nga LeRo_StReeTBoy në Fri Jan 10, 2014 3:30 am, edituar 1 herë gjithsej (Reason for editing : In UpToBox Host link is re uploaded now . :))
avatar
LeRo_StReeTBoy
Member-Albveraa
Member-Albveraa

Gjinia Gjinia : Male
Postimet Postimet : 59
Sa Vjeqar'e Sa Vjeqar'e : 24
Regjistrim Regjistrim : 21/11/2010
Vendbanimi Vendbanimi : Prizren
Humori Humori : Mesuesja : Lulë sa bejnë 2+2 ?Luli : 4 bejnëMesusja : Ulu 5Luli : e dita msuse po u habita.
Hobi Hobi : Music...Game...Movie !!
Horoskopi : Aquarius

Shiko profilin e anëtarit

Mbrapsht në krye Shko poshtë

New Mesazh Re: Rio [2011] 720p BRrip [Alb] Dubluar ne shqip

Mesazh nga istogu prej Thu Dec 08, 2011 8:06 am

flm
avatar
istogu
Antar-Albveraa

Gjinia Gjinia : Male
Postimet Postimet : 1
Sa Vjeqar'e Sa Vjeqar'e : 38
Regjistrim Regjistrim : 08/12/2011
Vendbanimi Vendbanimi : Istog-gurrakoc
Humori Humori : N/A
Hobi Hobi : N/A
Horoskopi : Gemini

Shiko profilin e anëtarit

Mbrapsht në krye Shko poshtë

New Mesazh Re: Rio [2011] 720p BRrip [Alb] Dubluar ne shqip

Mesazh nga Legend prej Tue Dec 27, 2011 3:47 am

thanks
avatar
Legend
Antar-Albveraa

Gjinia Gjinia : Male
Postimet Postimet : 3
Sa Vjeqar'e Sa Vjeqar'e : 23
Regjistrim Regjistrim : 26/12/2011
Vendbanimi Vendbanimi : Pej
Humori Humori : Kafeneja jon te oki
Hobi Hobi : futbolli
Horoskopi : Gemini

Shiko profilin e anëtarit

Mbrapsht në krye Shko poshtë

New Mesazh Re: Rio [2011] 720p BRrip [Alb] Dubluar ne shqip

Mesazh nga guribora prej Thu Jan 05, 2012 1:51 pm

flm
avatar
guribora
Antar-Albveraa

Gjinia Gjinia : Male
Postimet Postimet : 10
Sa Vjeqar'e Sa Vjeqar'e : 47
Regjistrim Regjistrim : 05/01/2012
Vendbanimi Vendbanimi : Prishtine
Humori Humori : i mire
Hobi Hobi : sony 2
Horoskopi : Capricorn

Shiko profilin e anëtarit

Mbrapsht në krye Shko poshtë

New Mesazh Flm

Mesazh nga Kamolli prej Mon Jan 16, 2012 8:14 am

Flm Vellai
avatar
Kamolli
Antar-Albveraa

Gjinia Gjinia : Male
Postimet Postimet : 8
Sa Vjeqar'e Sa Vjeqar'e : 30
Regjistrim Regjistrim : 16/01/2012
Vendbanimi Vendbanimi : Tirane
Humori Humori : Mire jo keq
Hobi Hobi : Kompjuterat
Horoskopi : Pisces

Shiko profilin e anëtarit

Mbrapsht në krye Shko poshtë

New Mesazh flm

Mesazh nga HenG prej Thu Feb 02, 2012 7:57 am

flm
avatar
HenG
Antar-Albveraa

Gjinia Gjinia : Male
Postimet Postimet : 6
Sa Vjeqar'e Sa Vjeqar'e : 23
Regjistrim Regjistrim : 01/02/2012
Vendbanimi Vendbanimi : S. D.
Humori Humori : *___*
Hobi Hobi : zzZz
Horoskopi : Capricorn

Shiko profilin e anëtarit

Mbrapsht në krye Shko poshtë

New Mesazh Re: Rio [2011] 720p BRrip [Alb] Dubluar ne shqip

Mesazh nga besari prej Sat Feb 04, 2012 11:45 am

flm shum
avatar
besari
Antar-Albveraa

Gjinia Gjinia : Male
Postimet Postimet : 3
Sa Vjeqar'e Sa Vjeqar'e : 22
Regjistrim Regjistrim : 04/02/2012
Vendbanimi Vendbanimi : skom
Humori Humori : sedi
Hobi Hobi : asend
Horoskopi : Libra

Shiko profilin e anëtarit

Mbrapsht në krye Shko poshtë

New Mesazh flm

Mesazh nga artisti prej Fri Feb 10, 2012 12:18 pm

istogu shkruajti:flm
flm
avatar
artisti
Antar-Albveraa

Gjinia Gjinia : Male
Postimet Postimet : 2
Sa Vjeqar'e Sa Vjeqar'e : 17
Regjistrim Regjistrim : 10/02/2012
Vendbanimi Vendbanimi : prishtinë
Humori Humori : miir
Hobi Hobi : sport
Horoskopi : Sagittarius

Shiko profilin e anëtarit

Mbrapsht në krye Shko poshtë

New Mesazh Re: Rio [2011] 720p BRrip [Alb] Dubluar ne shqip

Mesazh nga freeaxes prej Sun Mar 04, 2012 12:48 pm

flm
avatar
freeaxes
Antar-Albveraa

Gjinia Gjinia : Male
Postimet Postimet : 1
Sa Vjeqar'e Sa Vjeqar'e : 37
Regjistrim Regjistrim : 04/03/2012
Vendbanimi Vendbanimi : tirane
Humori Humori : ok
Hobi Hobi : null
Horoskopi : Capricorn

Shiko profilin e anëtarit

Mbrapsht në krye Shko poshtë

New Mesazh Re: Rio [2011] 720p BRrip [Alb] Dubluar ne shqip

Mesazh nga FitimKrasniqi prej Wed Mar 07, 2012 7:18 am

flm
avatar
FitimKrasniqi
Antar-Albveraa

Gjinia Gjinia : Male
Postimet Postimet : 2
Sa Vjeqar'e Sa Vjeqar'e : 21
Regjistrim Regjistrim : 07/03/2012
Vendbanimi Vendbanimi : Prizren-Kosove
Humori Humori : I Mir
Hobi Hobi : Mesimi
Horoskopi : Gemini

Shiko profilin e anëtarit

Mbrapsht në krye Shko poshtë

New Mesazh Re: Rio [2011] 720p BRrip [Alb] Dubluar ne shqip

Mesazh nga bacani74 prej Sun Mar 11, 2012 6:43 pm

flm
avatar
bacani74
Antar-Albveraa

Gjinia Gjinia : Male
Postimet Postimet : 4
Sa Vjeqar'e Sa Vjeqar'e : 43
Regjistrim Regjistrim : 11/03/2012
Vendbanimi Vendbanimi : italia
Humori Humori : ok
Hobi Hobi : pizza
Horoskopi : Libra

Shiko profilin e anëtarit

Mbrapsht në krye Shko poshtë

New Mesazh Re: Rio [2011] 720p BRrip [Alb] Dubluar ne shqip

Mesazh nga rangers prej Sat Mar 17, 2012 10:42 am

flm
avatar
rangers
Antar-Albveraa

Gjinia Gjinia : Male
Postimet Postimet : 18
Sa Vjeqar'e Sa Vjeqar'e : 37
Regjistrim Regjistrim : 12/03/2012
Vendbanimi Vendbanimi : Suedi
Humori Humori : I keq
Hobi Hobi : Skam
Horoskopi : Sagittarius

Shiko profilin e anëtarit

Mbrapsht në krye Shko poshtë

New Mesazh Re: Rio [2011] 720p BRrip [Alb] Dubluar ne shqip

Mesazh nga bonogv prej Sat Mar 31, 2012 5:55 am

istogu shkruajti:flm
avatar
bonogv
Antar-Albveraa

Gjinia Gjinia : Male
Postimet Postimet : 1
Sa Vjeqar'e Sa Vjeqar'e : 38
Regjistrim Regjistrim : 31/03/2012
Vendbanimi Vendbanimi : maqedoni
Humori Humori : high
Hobi Hobi : peshk
Horoskopi : Libra

Shiko profilin e anëtarit

Mbrapsht në krye Shko poshtë

New Mesazh Re: Rio [2011] 720p BRrip [Alb] Dubluar ne shqip

Mesazh nga norga_agron prej Sat Mar 31, 2012 9:46 am

flm
avatar
norga_agron
Antar-Albveraa

Gjinia Gjinia : Male
Postimet Postimet : 5
Sa Vjeqar'e Sa Vjeqar'e : 35
Regjistrim Regjistrim : 30/03/2012
Vendbanimi Vendbanimi : kosove
Humori Humori : stupcat
Hobi Hobi : futboll
Horoskopi : Libra

Shiko profilin e anëtarit

Mbrapsht në krye Shko poshtë

New Mesazh flm

Mesazh nga artjonbytyqi prej Wed Apr 04, 2012 10:14 am

istogu shkruajti:flm
avatar
artjonbytyqi
Antar-Albveraa

Gjinia Gjinia : Male
Postimet Postimet : 1
Sa Vjeqar'e Sa Vjeqar'e : 42
Regjistrim Regjistrim : 04/04/2012
Vendbanimi Vendbanimi : prishtine
Humori Humori : kafeneja jone
Hobi Hobi : sony play station
Horoskopi : Gemini

Shiko profilin e anëtarit

Mbrapsht në krye Shko poshtë

New Mesazh Re: Rio [2011] 720p BRrip [Alb] Dubluar ne shqip

Mesazh nga dri_ton prej Wed Apr 04, 2012 11:04 am

[flm
avatar
dri_ton
Antar-Albveraa

Gjinia Gjinia : Male
Postimet Postimet : 1
Sa Vjeqar'e Sa Vjeqar'e : 39
Regjistrim Regjistrim : 04/04/2012
Vendbanimi Vendbanimi : sweden
Humori Humori : stupcat
Hobi Hobi : sporti
Horoskopi : Sagittarius

Shiko profilin e anëtarit

Mbrapsht në krye Shko poshtë

New Mesazh Re: Rio [2011] 720p BRrip [Alb] Dubluar ne shqip

Mesazh nga antuel prej Tue Apr 10, 2012 2:44 pm

FLM
avatar
antuel
Antar-Albveraa

Gjinia Gjinia : Male
Postimet Postimet : 8
Sa Vjeqar'e Sa Vjeqar'e : 27
Regjistrim Regjistrim : 10/04/2012
Vendbanimi Vendbanimi : athen
Humori Humori : aaaaaa
Hobi Hobi : pc
Horoskopi : Cancer

Shiko profilin e anëtarit

Mbrapsht në krye Shko poshtë

New Mesazh Re: Rio [2011] 720p BRrip [Alb] Dubluar ne shqip

Mesazh nga antuel prej Tue Apr 10, 2012 2:46 pm

ju a ka thene njeri juve se megaupload eshte mbyllur????
avatar
antuel
Antar-Albveraa

Gjinia Gjinia : Male
Postimet Postimet : 8
Sa Vjeqar'e Sa Vjeqar'e : 27
Regjistrim Regjistrim : 10/04/2012
Vendbanimi Vendbanimi : athen
Humori Humori : aaaaaa
Hobi Hobi : pc
Horoskopi : Cancer

Shiko profilin e anëtarit

Mbrapsht në krye Shko poshtë

New Mesazh flm

Mesazh nga rimi prej Fri May 04, 2012 3:24 pm

LeRo_StReeTBoy shkruajti:












General
Complete name : Rio [2011] 720p BRrip [Alb] -LeRoSkyBoy™️.mkv
Format : Matroska
Format version : Version 2
File size : 3.50 GiB
Duration : 1h 32mn
Overall bit rate : 5 444 Kbps

Video
ID : 1
Format : AVC
Format/Info : Advanced Video Codec
Format profile : High@L4.1
Format settings, CABAC : Yes
Format settings, ReFrames : 9 frames
Format settings, GOP : M=4, N=54
Codec ID : V_MPEG4/ISO/AVC
Duration : 1h 32mn
Bit rate : 5 016 Kbps
Width : 1 280 pixels
Height : 528 pixels
Display aspect ratio : 2.40:1
Frame rate : 25.000 fps
Original frame rate : 23.976 fps
Color space : YUV
Chroma subsampling : 4:2:0
Bit depth : 8 bits
Scan type : Progressive
Bits/(Pixel*Frame) : 0.297
Stream size : 3.29 GiB (94%)
Writing library : x264 core 114 r1924 08d04a4
Language : English

Audio
Codec ID/Hint : MP3
Duration : 1h 32mn
Bit rate mode : Constant
Bit rate : 224 Kbps
Channel(s) : 2 channels
Sampling rate : 48.0 KHz
Compression mode : Lossy
Delay relative to video : -80ms
Stream size : 147 MiB (4%)
Language : English



Linku hide shëno p.sh. "FLM" për ta shkarkuar! Kosova










avatar
rimi
Antar-Albveraa

Gjinia Gjinia : Male
Postimet Postimet : 3
Sa Vjeqar'e Sa Vjeqar'e : 40
Regjistrim Regjistrim : 04/05/2012
Vendbanimi Vendbanimi : shkoder
Humori Humori : mire
Hobi Hobi : filmat
Horoskopi : Sagittarius

Shiko profilin e anëtarit

Mbrapsht në krye Shko poshtë

New Mesazh flm

Mesazh nga pashocevik prej Sat May 05, 2012 10:47 am

LeRo_StReeTBoy shkruajti:












General
Complete name : Rio [2011] 720p BRrip [Alb] -LeRoSkyBoy™️.mkv
Format : Matroska
Format version : Version 2
File size : 3.50 GiB
Duration : 1h 32mn
Overall bit rate : 5 444 Kbps

Video
ID : 1
Format : AVC
Format/Info : Advanced Video Codec
Format profile : High@L4.1
Format settings, CABAC : Yes
Format settings, ReFrames : 9 frames
Format settings, GOP : M=4, N=54
Codec ID : V_MPEG4/ISO/AVC
Duration : 1h 32mn
Bit rate : 5 016 Kbps
Width : 1 280 pixels
Height : 528 pixels
Display aspect ratio : 2.40:1
Frame rate : 25.000 fps
Original frame rate : 23.976 fps
Color space : YUV
Chroma subsampling : 4:2:0
Bit depth : 8 bits
Scan type : Progressive
Bits/(Pixel*Frame) : 0.297
Stream size : 3.29 GiB (94%)
Writing library : x264 core 114 r1924 08d04a4
Language : English

Audio
Codec ID/Hint : MP3
Duration : 1h 32mn
Bit rate mode : Constant
Bit rate : 224 Kbps
Channel(s) : 2 channels
Sampling rate : 48.0 KHz
Compression mode : Lossy
Delay relative to video : -80ms
Stream size : 147 MiB (4%)
Language : English



Linku hide shëno p.sh. "FLM" për ta shkarkuar! Kosova










avatar
pashocevik
Antar-Albveraa

Gjinia Gjinia : Female
Postimet Postimet : 3
Sa Vjeqar'e Sa Vjeqar'e : 33
Regjistrim Regjistrim : 05/05/2012
Vendbanimi Vendbanimi : gjermani
Humori Humori : i mire
Hobi Hobi : muzika
Horoskopi : Libra

Shiko profilin e anëtarit

Mbrapsht në krye Shko poshtë

New Mesazh Re: Rio [2011] 720p BRrip [Alb] Dubluar ne shqip

Mesazh nga pashocevik prej Sat May 05, 2012 10:48 am

flm
avatar
pashocevik
Antar-Albveraa

Gjinia Gjinia : Female
Postimet Postimet : 3
Sa Vjeqar'e Sa Vjeqar'e : 33
Regjistrim Regjistrim : 05/05/2012
Vendbanimi Vendbanimi : gjermani
Humori Humori : i mire
Hobi Hobi : muzika
Horoskopi : Libra

Shiko profilin e anëtarit

Mbrapsht në krye Shko poshtë

New Mesazh Re: Rio [2011] 720p BRrip [Alb] Dubluar ne shqip

Mesazh nga lulemaji prej Sun May 06, 2012 3:03 pm

flm
avatar
lulemaji
Antar-Albveraa

Gjinia Gjinia : Female
Postimet Postimet : 15
Sa Vjeqar'e Sa Vjeqar'e : 46
Regjistrim Regjistrim : 31/03/2012
Vendbanimi Vendbanimi : Prishtine
Humori Humori : i mire
Hobi Hobi : filma
Horoskopi : Capricorn

Shiko profilin e anëtarit

Mbrapsht në krye Shko poshtë

New Mesazh Re: Rio [2011] 720p BRrip [Alb] Dubluar ne shqip

Mesazh nga lulemaji prej Sun May 06, 2012 3:10 pm

O i nderuar LeRo, Megaupload eshte mbyllur qe moti. Nese mundesh me na dhene linka te rinj te lutem. Flm shume
avatar
lulemaji
Antar-Albveraa

Gjinia Gjinia : Female
Postimet Postimet : 15
Sa Vjeqar'e Sa Vjeqar'e : 46
Regjistrim Regjistrim : 31/03/2012
Vendbanimi Vendbanimi : Prishtine
Humori Humori : i mire
Hobi Hobi : filma
Horoskopi : Capricorn

Shiko profilin e anëtarit

Mbrapsht në krye Shko poshtë

New Mesazh Re: Rio [2011] 720p BRrip [Alb] Dubluar ne shqip

Mesazh nga tonimontana prej Wed May 09, 2012 1:23 pm

flm
avatar
tonimontana
Antar-Albveraa

Gjinia Gjinia : Male
Postimet Postimet : 1
Sa Vjeqar'e Sa Vjeqar'e : 37
Regjistrim Regjistrim : 09/05/2012
Vendbanimi Vendbanimi : tirana
Humori Humori : mire
Hobi Hobi : makina
Horoskopi : Taurus

Shiko profilin e anëtarit

Mbrapsht në krye Shko poshtë

New Mesazh Re: Rio [2011] 720p BRrip [Alb] Dubluar ne shqip

Mesazh nga o_O**Ne0**O_o prej Thu May 24, 2012 1:37 pm

flm
avatar
o_O**Ne0**O_o
Antar-Albveraa

Gjinia Gjinia : Male
Postimet Postimet : 6
Sa Vjeqar'e Sa Vjeqar'e : 33
Regjistrim Regjistrim : 15/01/2011
Vendbanimi Vendbanimi : Drenas
Humori Humori : Happy
Hobi Hobi : Livrues i arave
Horoskopi : Sagittarius

Shiko profilin e anëtarit

Mbrapsht në krye Shko poshtë

New Mesazh Re: Rio [2011] 720p BRrip [Alb] Dubluar ne shqip

Mesazh nga Sponsored content


Sponsored content


Mbrapsht në krye Shko poshtë

Faqja 1 e 3 1, 2, 3  Next

Shiko temën e mëparshme Shiko temën pasuese Mbrapsht në krye


 
Drejtat e ktij Forumit:
Ju nuk mund ti përgjigjeni temave të këtij forumi